#TITLE:Elva Is Black;
#SUBTITLE:;
#ARTIST:Elva Hsiao;
#TITLETRANSLIT:;
#SUBTITLETRANSLIT:;
#ARTISTTRANSLIT:Tieu A Hien;
#CREDIT:;
#BANNER:Elva Is Black-bn.png;
#BACKGROUND:Elva Is Black-bg.png;
#LYRICSPATH:;
#CDTITLE:pm4cd.png;
#MUSIC:Elva Is Black.mp3;
#OFFSET:0.000;
#SAMPLESTART:71.670;
#SAMPLELENGTH:20.000;
#SELECTABLE:YES;
#BPMS:0.000=123.010;
#STOPS:;
#BGCHANGES:;
// cache tags:
#FIRSTBEAT:1.500;
#LASTBEAT:441.500;
#SONGFILENAME:Songs/Music V.I.P ^_^/Elva Is Black/Elva Is Black.sm;
#HASMUSIC:1;
#HASBANNER:1;
#MUSICLENGTH:218.623;
// end cache tags

//---------------dance-single - ----------------
#NOTES:
     dance-single:
     :
     Hard:
     10:
     0.863,0.934,0.832,0.064,0.787,1117.000,182.000,14.000,0.000,27.000:
0000
0000
0000
0100
0010
0101
1000
0000
,
0001
0110
0010
0000
1000
0011
0100
0000
,
1000
0101
0010
0000
0001
1010
0100
0000
,
0001
1100
0010
0000
0100
0011
0010
0000
,
1000
0011
0100
0000
0010
1100
0001
0000
,
0010
0101
1000
2000
0001
0101
0010
0000
,
0001
0110
0001
3002
0010
1100
0100
0000
,
1000
0110
0010
0203
0000
1010
0000
1001
,
0010
0010
0010
0010
0010
0000
1311
0000
0010
0000
0100
0000
1000
0000
0001
0000
,
0000
0010
0100
0000
0010
0000
0000
0000
0010
0000
0100
0000
1000
0000
0010
0000
,
0000
0100
1000
0000
0010
0000
0000
0000
0100
0000
0010
0000
0001
0000
0100
0000
,
0000
1000
0010
0000
0100
0000
0000
0000
0100
0000
0011
0000
1000
0000
1100
0000
,
0000
0100
0011
0000
0100
0000
1010
0000
0100
0000
0010
0000
1000
0000
0100
0000
,
0000
0010
0100
0000
0001
0000
0000
0000
0100
0000
0010
0000
1000
0000
0100
0000
,
0000
0001
0100
0000
0010
0000
0000
0000
0100
0000
1000
0000
0010
0000
0100
0000
,
0000
0100
0010
0000
0001
0000
0000
0000
0100
0000
1001
0000
0100
0000
0011
0000
,
0011
0001
0011
0000
1000
0000
0100
0001
0010
0100
1000
0010
0100
1000
0010
0100
,
0010
0001
0000
0000
1000
0100
0010
0100
0010
0001
0000
1000
0100
0010
0100
0010
,
0001
0010
0000
0000
1000
0100
1000
0000
0000
0000
0000
0000
0011
0110
0000
1000
,
1000
1100
0000
0000
0001
0010
0001
0000
0000
0000
1000
0100
1000
0100
0000
0001
,
0001
0001
0011
0000
0000
1000
0100
0010
0100
0010
0001
0010
0100
1000
0010
0100
,
0010
0001
0000
0000
0100
0001
0100
1000
0100
0010
0000
0000
0100
0010
0001
0100
,
0010
0100
0000
0000
1000
0100
0010
0000
0000
0000
0000
0000
1000
0100
0000
0001
,
0001
0001
0011
0000
1000
0100
1000
0000
0000
0000
0001
0010
0001
0010
0000
1000
,
1000
1000
1100
0000
0000
0000
0110
0000
0001
0000
1000
0000
0010
0000
1100
0000
,
0100
0000
1000
0001
0000
0000
1010
0000
0001
0000
0100
0000
0010
0000
1100
0000
,
0001
0000
0010
0100
0010
0000
1001
0000
0100
0000
0010
0000
1000
0000
0110
0000
,
0010
0000
0100
1000
0100
0000
1100
0000
0001
0000
0010
0000
0001
0000
0110
0000
,
1000
0000
0100
0010
0001
0000
0110
0000
1000
0000
0001
0000
1000
0000
0110
0000
,
0001
0000
0010
0100
0010
0000
1010
0000
0010
0000
0100
0000
0001
0000
1100
0000
,
0001
0000
0010
0100
0001
0000
0011
0000
0100
0000
1000
0000
0010
0000
0101
0000
,
1000
0000
0100
0010
0001
0000
1100
0000
0001
0000
0010
0000
0001
0000
1100
0000
,
0010
0000
0100
1000
0010
0000
0101
0000
0010
0000
1100
0000
0010
0000
0101
0000
,
0010
0101
1000
0110
0010
1010
0010
0101
,
1000
0101
0010
1100
0001
0101
0010
1100
,
0010
0101
0010
1100
0010
0101
1010
0002
,
0100
0100
0100
0100
0100
0100
1013
0001
0100
1000
0010
0100
0001
0010
0100
1000
,
0010
0001
1000
0100
0010
0100
1000
0010
0001
1000
0100
0001
0010
0100
1000
0001
,
0010
1000
0100
0010
0001
1000
0100
0001
0100
0001
0100
1000
0010
0000
0100
0001
,
0100
0001
0010
1000
0001
0100
0010
1000
0100
0001
0100
0001
0010
1000
0100
0010
,
0001
0100
0010
1000
0010
0100
0001
0100
0001
0010
1000
0100
0010
0100
0010
0100
,
1000
0001
0010
0100
0001
0100
1000
0001
0010
0100
0001
0010
1000
0010
0001
0100
,
0001
0010
1000
0010
0100
0001
0010
1000
0010
0001
0100
0010
1000
0010
0001
0100
,
0010
0100
1000
0010
0001
0100
1000
0100
0010
0002
1000
0000
0000
0000
1000
0000
,
0100
0100
0100
0100
0100
0100
0103
0000
0010
0000
1010
0000
0100
0000
0011
0000
,
0010
1010
0100
0011
0010
0101
0010
1001
,
0100
0011
0100
1010
0010
0011
0010
1010
,
0100
0011
1000
0011
0100
0101
0010
1010
,
0100
0011
1000
0011
0100
1010
0010
0101
,
0010
0101
0100
1100
0010
0101
0010
1010
,
0100
0011
0010
0101
1000
0110
0001
0011
,
0100
0011
1000
0101
0010
2100
0000
0100
,
0010
0010
0010
0010
0010
0010
3010
0000
0100
0000
0000
0000
0010
0000
0000
0000
,
0100
0001
0100
0010
,
0100
0010
1000
0000
0001
0000
0000
0000
1000
0000
0000
0000
0100
0000
0000
0000
,
1000
0010
0100
1000
,
0010
0001
0100
0000
0001
0000
0001
0010
1100
0000
0000
0000
0100
0000
0000
0000
,
0010
0100
0001
0100
,
1000
0100
1000
0000
0001
0000
0100
0010
1001
0000
0000
0000
0010
0000
0000
0000
,
0100
0001
0100
1000
,
0100
0000
0000
0000
0010
0001
0010
0100
1000
0100
0000
0000
0010
0001
0010
0100
,
0010
0001
0000
0000
1000
0100
0010
0001
0010
0100
0000
0000
0010
0100
0010
0100
,
1000
0100
0000
0000
0010
0100
1011
0000
0000
0000
0010
0000
1101
0000
0110
0100
,
0110
0010
0100
0010
0010
0010
0111
0000
0000
0000
1100
1000
1100
0100
0010
0100
,
0100
0100
1101
0000
0001
0010
0001
0010
0100
0010
0001
0000
0010
0100
0010
0001
,
0010
0001
0000
0100
0010
0100
1000
0100
0010
0001
0000
0010
0001
0010
0100
1000
,
0100
1000
0000
0000
0101
0100
1110
0000
0000
0000
0010
0000
1110
0010
0110
0000
,
0100
0000
1010
0010
0110
0100
1110
0000
0000
0000
1000
0010
0101
0010
0001
0001
,
0011
0010
0100
0000
0001
0000
0110
0000
0010
0000
1010
0000
0001
0000
1100
0000
,
0010
1010
1000
1100
0010
1001
0100
0110
,
0100
1010
0100
0011
1000
0101
0010
1100
,
0001
1010
0100
0011
1000
0110
0001
1010
,
0100
0000
1001
0100
1000
0100
2000
0000
0000
0000
0100
0000
0000
0000
3020
0000
,
1000
1000
1000
1000
1000
1000
1031
0100
0010
1000
0011
0100
1000
0010
0100
0010
,
0001
0010
0100
0001
1000
0100
0010
0100
0001
0010
1000
0100
0001
0100
1000
0100
,
0001
0010
0100
0010
0001
1000
0100
0001
0100
0010
1000
0100
0010
0100
1000
0000
,
0100
1000
0010
1000
0100
0010
0001
0100
0010
1000
0100
0001
1000
0100
1000
0010
,
0001
0001
0001
0001
0001
0001
0001
0010
0100
0001
0100
0010
0001
0010
0100
0010
,
1000
0100
0010
0001
0010
1000
0100
0001
0010
0100
1000
0010
0100
1000
0100
0010
,
0001
0100
0010
1000
0010
0100
0001
0010
1000
0001
1000
0100
0001
0100
0010
0100
,
1000
0001
0010
0100
1000
0100
0001
0010
0100
0010
0102
0000
0000
0000
0200
0003
,
0001
0001
0001
0001
0001
0001
1301
0100
0010
0001
1100
0010
0100
0010
0100
0001
,
0010
0100
1001
0010
0001
0100
0010
0001
1000
0010
0101
0010
0001
0100
0010
0100
,
1000
0010
1100
0010
0100
1000
0001
0010
0100
0010
1001
0100
0010
0001
0010
0100
,
1000
0100
0011
0100
1000
0100
0001
0010
0100
0010
1001
0100
1000
0010
0100
0010
,
0001
0001
0101
0001
0001
0001
0001
0010
0100
0010
1001
0010
0100
0001
0010
1000
,
0001
0010
1100
0010
1000
0100
0010
0001
0100
0010
1001
0100
1000
0010
0100
0010
,
1000
0100
1010
0100
0010
0001
0010
0100
0010
1000
0101
0010
0001
0100
0010
1000
,
0100
0010
1100
0010
0001
0100
0001
0100
0010
0100
2010
0000
0000
0000
0020
3000
,
1000
1000
1000
1000
1000
1000
1130
0000
0001
0000
1010
0000
0100
0000
0000
0000
,
0010
0101
1000
0000
0001
0110
1000
0000
,
1000
0011
0100
1001
0010
1100
0001
0000
,
0010
0101
1000
0000
0010
1100
1000
0000
,
1000
0000
0011
0000
0100
0000
1000
0100
0010
0100
1001
0000
0010
0000
0000
0000
,
0001
1100
0010
0000
0100
0110
0001
0000
,
1000
0000
1100
0000
0001
0000
0100
1000
0100
0010
0101
0000
1000
0000
0000
0000
,
0100
0101
0001
0000
0001
0110
1000
0000
,
0100
0000
0010
0001
0100
0000
1000
1000
0000
0100
0010
0000
0001
0000
0001
0000
,
1000
0100
1000
0100
0010
1000
0100
1000
0100
0010
1000
0000
1000
0000
1000
0000
,
0001
0010
0001
0010
0001
0010
0001
0010
0001
0010
0100
0010
0100
0010
1000
0100
,
1000
0100
0010
0001
0010
0001
0000
0000
1000
0100
0000
0100
0010
0001
0010
0010
,
0001
0001
0001
0001
0100
0010
0100
0010
,
1000
0100
1000
0000
0100
0000
1000
0100
1000
0000
0000
0100
0001
0000
0000
0010
0000
0000
0100
0000
0000
0100
0000
0000
,
0100
0100
0100
0100
0100
0100
0101
0000
0010
0000
1000
0000
0100
0000
0001
0000
,
0100
0010
0100
0000
0010
0000
1000
0000
0100
0000
0001
0000
0100
0000
0001
0000
,
0010
0010
0100
1001
0010
0101
0010
1010
,
0100
0101
0010
0110
0010
0101
0010
1100
,
0100
0011
0100
1010
0010
0101
0100
0110
,
1000
0110
0010
1100
0011
1000
0100
0100
,
0010
0000
0010
0010
0010
0010
2200
0000
0000
0000
0011
0000
0000
0000
0011
0000
,
0010
0010
0010
0010
0010
0010
3311
0000
0000
0000
0000
0000
0000
0000
0000
0000
;

//---------------dance-single - ----------------
#NOTES:
     dance-single:
     :
     Medium:
     1:
     0.000,0.000,0.000,0.000,0.000,0.000,0.000,0.000,0.000,0.000:
0000
0000
0000
0000
;
